На сайте можно скачать trance, vocal trance, progressive, house, techno музыку бесплатно без регистрации. Все trance house новинки 2019 года. Диджеи: Armin van Buuren, Tiesto, Markus Schulz, Ferry Corsten, Aly & Fila, ATB, Paul van Dyk и другие.
Категория: Video

Niels van Gogh vs Daniel Strauss-Emergency-2010

Artist:.......................... Niels van Gogh vs Daniel Strauss
Title:.................................................. Emergency
Filename:.........................................................
... Niels_van_Gogh_vs_Daniel_Strauss-Emergency-DVDRiP-x264-2010-SE

Date:............... 22/05/2011 Video Source:............. DVD
Genre:................... House Video Codec:............. x264
Combined Filesize:..... 64.8 MB Video Bitrate:....... 2983kbit
Length:................... 2:51 Video Framerate:....... 25 fps
Channel:................... N/A Audio Source:............. MP3
Resolution:............ 720x432 Audio Format:....... MP3 (VBR)
Display AR:............ 754:432 Audio Bitrate:........ 196kbit
Deinterlace Method:....... None Audio SampleRate:.... 44,1 kHz
 
Категория: Video

Edward Maya feat Vika Jigulina-Desert Rain-720p-2011

Artist:............................ Edward Maya feat Vika Jigulina
Title:................................................ Desert Rain
Filename:.........................................................
..... Edward_Maya_feat_Vika_Jigulina-Desert_Rain-720p-x264-2011-SE

Date:............... 22/05/2011 Video Source:............ 720p
Genre:................... Dance Video Codec:............. x264
Combined Filesize:.... 136.3 MB Video Bitrate:....... 4363kbit
Length:................... 4:10 Video Framerate:....... 25 fps
Channel:................... N/A Audio Source:............. MP3
Resolution:........... 1280x624 Audio Format:....... MP3 (VBR)
Display AR:........... 1280:624 Audio Bitrate:........ 210kbit
Deinterlace Method:....... None Audio SampleRate:.... 44,1 kHz
 
Категория: Video

Хиты 2000-х №1: ТОП 20 от MTV

Air Date: 2011-05-16
Quality: SATRip (MTV Dance)
Video: 704x576 (4:3) 1716 kbps
Audio: 48000Hz 2Ch 192 kbps
Size: 957 MB
Playtime: 70 min
 
Категория: Video

BT - Le Nocturne De Lumiere (Full HD 2011)

Год выпуска: 2011
Жанр: Trance, Progressive
Продолжительность: 2 min. 50 sec.
Качество: 1920*1080 (16/9)
Формат: MP4
Видео: 2806 kbps, 29.970 fps
Аудио: 128 kbps, 44 100 Hz, AAC
Размер: ~60 MB
 
Категория: Video

Fracture & Neptune feat. Martin Fieber - Customtone (Full HD 2011)

Год выпуска: 2011
Жанр: Drum & Bass
Продолжительность: 4 min. 29 sec.
Качество: 1920*1080 (16/9)
Формат: MP4
Видео: 3510 kbps, 24 fps
Аудио: 128 kbps, 44 100 Hz, AAC
Размер: ~115 MB
 
Категория: Video

Клубные Хиты: Топ 20 от MTV (2011-05-12)

Air Date: 2011-05-12
Quality: SATRip (MTV Dance)
Video: 544x306 (16:9) 2040 kbps
Audio: 48000Hz 2Ch 192 kbps
Size: 1 GB
Playtime: 65 min
 
Категория: Video

ATB with Dash Berlin - Apollo Road

 
Категория: Video

90-е В РИТМЕ ТРАНС: ТОП 20 от MTV (2011-05-10)

Air Date: 2011-05-10
Quality: SATRip (MTV Dance)
Video: 544x306 (16:9) 2040 kbps
Audio: 48000Hz 2Ch 192 kbps
Size: 1 GB
Playtime: 75 min
 
Категория: Video

tyDi feat. Brianna Holan - Never Go Back (Official Music Video)

General
Format : MPEG-4
Format profile : Base Media / Version 2
Codec ID : mp42
File size : 50.6 MiB
Duration : 4mn 14s
Overall bit rate : 1 669 Kbps
Encoded date : UTC 2011-05-02 09:04:17
Tagged date : UTC 2011-05-02 09:04:17
gsst : 0
gstd : 254560
gssd : BC37A1E0BHH1304949967839905
gshh : o-o.preferred.lattelecom-rix1.v24.lscache2.c.youtube.com
Video #1
ID : 1
Format : AVC
Format/Info : Advanced Video Codec
Format profile : High@L3.1
Format settings, CABAC : Yes
Format settings, ReFrames : 1 frame
Codec ID : avc1
Codec ID/Info : Advanced Video Coding
Duration : 4mn 14s
Bit rate mode : Variable
Bit rate : 1 512 Kbps
Maximum bit rate : 3 518 Kbps
Width : 1 272 pixels
Height : 720 pixels
Display aspect ratio : 16:9
Frame rate mode : Constant
Frame rate : 25.000 fps
Resolution : 24 bits
Colorimetry : 4:2:0
Scan type : Progressive
Bits/(Pixel*Frame) : 0.066
Stream size : 45.9 MiB (91%)
Encoded date : UTC 1970-01-01 00:00:00
Tagged date : UTC 2011-05-02 09:04:19
Audio #2
ID : 2
Format : AAC
Format/Info : Advanced Audio Codec
Format version : Version 4
Format profile : LC
Format settings, SBR : No
Codec ID : 40
Duration : 4mn 14s
Bit rate mode : Variable
Bit rate : 152 Kbps
Maximum bit rate : 210 Kbps
Channel(s) : 2 channels
Channel positions : L R
Sampling rate : 44.1 KHz
Resolution : 16 bits
Stream size : 4.61 MiB (9%)
Title : (C) 2007 Google Inc. v08.13.2007.
Encoded date : UTC 2011-05-02 09:04:18
Tagged date : UTC 2011-05-02 09:04:19
 
Категория: Video

Tiesto Top 50 Club Life (2011-05-06)

Air Date: 2011-05-06
Quality: SATRip (MTV Dance)
Video: 544x306 (16:9) 1716 kbps
Audio: 48000Hz 2Ch 192 kbps
Size: 2.4 GB
Playtime: 180 min
 
Категория: Video

Moonbeam feat. Avis Vox - Hate Is The Killer

 
Категория: Video

A State Of Trance 500-Live From Sydney (2011/04/16)

Country: Australia
Genre: Trance, Progressive Trance
Length: 3:56:00

Quality: WEBRip
Container: MP4
Video codec: VC-1
Audio Codec: MP3
Video: AVC, 640x360, 16:9, 350 kbps, 24.7 fps
Audio: MPEG Audio, 80 kbps, 44.1 KHz, 1 c
 
Категория: Video

Gareth Emery feat. Lucy Saunders - Fight The Sunrise (Official Music Video)

 
Категория: Video

John O'Callaghan _ Betsie Larkin - Save This Moment (Official Music Video)

 
Категория: Video

Armin van Buuren feat. Laura V - Drowning (Avicii Remix) (Official Music Video)

 
Категория: Video

W and W - Impact (Official Music Video)

 
Категория: Video

Paul Van Dyk - Live at Green Valley Brazil 2010

Качество: HDTVrip
Контейнер: MKV
Видео кодек: AVC
Аудио кодек: AC3
Видео: 16:9 1280x720 3954 kbps 25,000 fps
Аудио: AC3 192 kbps 48,0 kHz 2 ch
 
Категория: Video

ATB - Live at A State of Trance 500 (2011/03/27, Miami, USA)

Жанр: Trance
Продолжительность: 1:00:00
Год выпуска: 2011
Описание:
Часовой DJ-сет ATB в Майами в рамках празднования 500 выпуска программы Армин ван Бюрена "A State of Trance". Материал представляет собой монтаж самых крутых моментов, снятых десятью фанами с hd-камер из зала. Видеоматериал смиксован с аудио высшего качества.
 
Категория: Video

Roger Shah presents Sunlounger feat. Zara Taylor - Feels Like Heaven

 
Категория: Video

Marcel Woods - Champagne Dreams

 
Информация на сайте представлена в виде ознакомительного материала.
Основным стилем сайта является клубная Trance and Progressive музыка в формате mp3.
А также, другие стили: Ambient, Chillout, House, Goa-Psy
Rambler's Top100